Search

Monday, February 24, 2020

DILER The Daring 2 (Devarattam) (2020) UNCUT Hindi Dubbed 1080p AVC x264 AAC 1.4GB


Movie name :

DILER The Daring 2 (Devarattam) (2020) UNCUT Hindi Dubbed 1080p AVC x264 AAC 1.4GB

General
Format : Matroska
Format version : Version 4
File size : 1.43 GiB
Duration : 1 h 37 min
Overall bit rate : 2 105 kb/s
Movie name : www.HDWebMovies.live
Encoded date : UTC 2020-02-24 20:45:30
Writing application : mkvmerge v42.0.0 ('Overtime') 64-bit
Writing library : libebml v1.3.10 + libmatroska v1.5.2

Video
ID : 1
Format : AVC
Format/Info : Advanced Video Codec
Format profile : High@L4.1
Format settings : CABAC / 4 Ref Frames
Format settings, CABAC : Yes
Format settings, Reference frames : 4 frames
Format settings, GOP : M=3, N=25
Codec ID : V_MPEG4/ISO/AVC
Duration : 1 h 37 min
Bit rate : 1 995 kb/s
Width : 1 920 pixels
Height : 1 080 pixels
Display aspect ratio : 16:9
Frame rate mode : Constant
Frame rate : 24.000 FPS
Color space : YUV
Chroma subsampling : 4:2:0
Bit depth : 8 bits
Scan type : Progressive
Bits/(Pixel*Frame) : 0.040
Stream size : 1.35 GiB (95%)
Default : Yes
Forced : No

Audio
ID : 2
Format : AAC LC
Format/Info : Advanced Audio Codec Low Complexity
Codec ID : A_AAC-2
Duration : 1 h 37 min
Bit rate : 108 kb/s
Channel(s) : 2 channels
Channel layout : L R
Sampling rate : 48.0 kHz
Frame rate : 46.875 FPS (1024 SPF)
Compression mode : Lossy
Delay relative to video : 80 ms
Stream size : 74.7 MiB (5%)
Language : Hindi
Default : Yes
Forced : No




No comments:

Post a Comment

"Geo Film" সাইটটি "বন্ধন কেনাকাটা" র একটি অঙ্গ প্রতিষ্ঠান। একমাত্র আপনাদের বিনোদনের জন্য এই সাইটটি তৈরী করা হয়েছে। "ভালো থাকুন, সুস্থ থাকুন "