Search

Friday, November 22, 2019

Juliet Lover of Idiot (2017) UNCUT 720p WEB-HDRip x264 Esubs [Dual Audio] [Hindi DD 2.0 - Telugu 2.0] - 1.3 GB



INFO

UPLOADED BY BIGBOSSMOVIE24

General
Format : Matroska
Format version : Version 4
File size : 1.35 GiB
Duration : 2 h 6 min
Overall bit rate : 1 522 kb/s

Video
ID : 1
Format : AVC
Format/Info : Advanced Video Codec
Format profile : High@L4
Format settings : CABAC / 5 Ref Frames
Format settings, CABAC : Yes
Format settings, Reference : 5 frames
Codec ID : V_MPEG4/ISO/AVC
Duration : 2 h 6 min
Bit rate : 1 200 kb/s
Width : 1 280 pixels
Height : 544 pixels
Display aspect ratio : 2.35:1
Original display aspect rat : 2.35:1
Frame rate mode : Constant
Frame rate : 24.000 FPS
Color space : YUV
Chroma subsampling : 4:2:0
Bit depth : 8 bits
Default : Yes
Forced : No

Audio #1
ID : 2
Format : AC-3
Format/Info : Audio Coding 3
Commercial name : BIGBOSSMOVIE24
Codec ID : A_AC3
Duration : 2 h 6 min
Bit rate mode : Constant
Bit rate : 192 kb/s
Channel(s) : 2 channels
Channel layout : L R
Sampling rate : 48.0 kHz
Frame rate : 31.250 FPS (1536 SPF)
Compression mode : Lossy
Delay relative to video : -5 ms
Stream size : 174 MiB (13%)
Title : BIGBOSSMOVIE24
Language : Hindi
Service kind : Complete Main
Default : Yes
Forced : Yes

Audio #2
ID : 3
Format : AC-3
Format/Info : Audio Coding 3
Commercial name : BIGBOSSMOVIE24
Codec ID : A_AC3
Duration : 2 h 6 min
Bit rate mode : Constant
Bit rate : 128 kb/s
Channel(s) : 2 channels
Channel layout : L R
Sampling rate : 48.0 kHz
Frame rate : 31.250 FPS (1536 SPF)
Compression mode : Lossy
Delay relative to video : -5 ms
Stream size : 116 MiB (8%)
Title : BIGBOSSMOVIE24
Service kind : Complete Main
Default : No
Forced : No

Text
ID : 4
Format : ASS
Codec ID : S_TEXT/ASS
Codec ID/Info : Advanced Sub Station Alpha
Compression mode : Lossless
Title : BIGBOSSMOVIE24
Language : English
Default : No
Forced : No


SCREENSHOT



No comments:

Post a Comment

"Geo Film" সাইটটি "বন্ধন কেনাকাটা" র একটি অঙ্গ প্রতিষ্ঠান। একমাত্র আপনাদের বিনোদনের জন্য এই সাইটটি তৈরী করা হয়েছে। "ভালো থাকুন, সুস্থ থাকুন "